#TITLE:one;
#SUBTITLE:;
#ARTIST:Epik High;
#TITLETRANSLIT:;
#SUBTITLETRANSLIT:;
#ARTISTTRANSLIT:;
#CREDIT:;
#BANNER:one_logo.jpg;
#BACKGROUND:one_bg.jpg;
#LYRICSPATH:;
#CDTITLE:Lan.png;
#MUSIC:one.mp3;
#OFFSET:-0.060;
#SAMPLESTART:100.000;
#SAMPLELENGTH:12.000;
#SELECTABLE:YES;
#BPMS:0.000=135.000;
#STOPS:;
#BGCHANGES:;
// cache tags:
#FIRSTBEAT:9.000;
#LASTBEAT:348.750;
#SONGFILENAME:Songs/Super Dancer Online/one/one.sm;
#HASMUSIC:1;
#HASBANNER:1;
#MUSICLENGTH:158.893;
// end cache tags

//---------------dance-single - sky----------------
#NOTES:
     dance-single:
     sky:
     Hard:
     9:
     0.938,0.933,1.000,0.013,0.050,614.000,379.000,2.000,0.000,29.000:

0000
0000
0000
0000
,
0000
0000
0000
0000
,
0000
0000
1100
0011
1100
0011
1100
0011
,
1111
0000
1100
0001
0010
0101
1000
0011
,
0100
0000
0110
0000
0001
1001
0010
0101
,
1000
0000
1010
0000
0001
1100
0010
1001
,
0100
0000
0000
0000
0011
0000
0000
0000
0000
0000
1000
0100
0001
0010
0001
0010
,
1001
1001
1001
0010
1001
0100
0001
1100
,
0101
0010
1001
0010
1001
0100
0001
1100
,
0101
0010
1100
0001
1100
0011
1000
0110
,
1001
0010
1100
0001
0110
1000
0010
0101
,
1001
0100
1001
0010
1001
0100
0001
1100
,
0101
0010
1001
0010
1001
0100
0001
1100
,
0101
0010
1100
0001
1100
0011
1000
0110
,
1001
0010
1101
1000
1000
0111
0001
0001
,
1101
0011
1010
0100
1001
0010
0110
0001
,
1001
0100
0011
0100
1010
0001
0110
1000
,
0101
0010
1100
0001
1001
0100
0011
1000
,
0110
1000
1001
0100
1010
0001
1100
0001
,
0110
0000
1100
0110
1100
0110
1100
0110
,
1101
0000
0110
0011
0110
0011
0110
0011
,
1110
0000
1100
0011
1100
0011
1100
0011
,
1011
0110
1001
0110
1001
0110
0111
0000
,
0000
0000
1111
0011
0110
0000
1100
0110
,
0000
1001
0000
1010
0101
0000
0011
0110
,
1100
1001
0000
0101
0110
0000
1010
0110
,
0000
1001
0000
0011
1100
0000
0110
0011
,
0000
1001
0000
1100
1010
0000
1100
0110
,
0011
1001
0000
0101
1010
0000
0011
0110
,
1100
0110
0000
1010
0110
0000
1001
0110
,
0000
0011
1111
0000
0000
0000
0000
0000
,
0000
0000
1100
0100
1100
0100
1100
0100
,
1100
0100
0011
0001
0011
0001
0011
0001
,
0011
0001
1001
1000
1001
1000
1001
1000
,
1001
1000
0110
0010
0110
0010
0110
0010
,
0110
0010
0101
0001
0101
0001
0101
0001
,
0101
0001
1010
1000
1010
1000
1010
1000
,
1010
1000
1001
0001
1001
0001
1001
0001
,
1001
0001
1001
0000
0000
0000
0000
0000
,
0000
0000
1100
0001
0110
1000
0101
0010
,
1001
0100
1010
0001
0110
0001
1100
0010
,
0101
1000
0101
1010
0110
0011
1100
0110
,
1001
0110
1001
0100
0011
0100
1010
0001
,
0110
1000
0101
1010
0101
1010
0101
1100
,
0110
1001
1001
0100
0011
1000
0110
1000
,
0101
0010
1001
0110
0101
1100
1010
0101
,
1111
0110
0000
0000
0000
0000
0011
0011
,
0011
0011
0011
0011
1100
0000
0010
0000
0001
0000
0100
0000
0010
0000
1000
0000
,
0100
0001
1010
0100
0001
0100
1000
0010
,
0100
0001
0110
1000
0100
0001
0100
1000
,
0010
0100
1001
0100
1000
0001
0100
0010
,
1000
0001
1010
0100
0001
0010
1000
0100
,
1000
0001
0101
0010
1000
0100
0001
1000
,
0010
1000
0101
0010
0001
0100
1000
0010
,
0100
0000
0001
0000
0110
0000
1000
0000
0001
0000
0010
0000
1000
1000
1000
1000
,
0010
0010
0010
0010
1111
0000
0000
0000
1100
0000
1001
0000
0000
0000
0110
0000
,
0101
0000
1111
0000
0011
0110
0000
1001
,
1010
0000
1111
0000
1010
0101
0000
1001
,
0110
0000
1111
0000
1100
1010
0000
0110
,
0101
0000
1111
0000
0101
0011
0000
1010
,
0110
0000
1111
0000
1001
0011
0000
1100
,
0101
0000
1111
0000
1010
0110
0000
0101
,
0110
0000
1111
0000
0101
0011
0000
1010
,
0110
0000
1111
0100
0010
0001
0100
1000
,
0010
0100
1111
0100
0010
1000
0100
0001
,
1000
0010
1111
0010
0100
0001
1000
0010
,
0100
0001
1111
0001
1000
0010
0001
0100
,
1000
0010
1111
0100
0010
0001
1100
0100
,
0001
1000
1111
0010
1000
0100
0011
0100
,
1000
0001
1111
0001
0110
1000
0101
0010
,
1100
0000
0001
0000
0110
0000
1100
0000
0011
0000
1001
0000
0100
0100
0100
0100
,
0100
0100
0000
0000
1111
0000
0001
0000
0110
0000
1000
0000
0101
0000
0010
0000
,
1001
0100
1010
0100
0011
0100
1001
0100
,
1010
0100
0011
1100
0101
1010
0101
1010
,
0110
1001
1010
0100
1001
0010
1100
0010
,
0101
1000
0110
0001
1010
0100
0011
0100
,
1001
0010
1100
0001
0110
0001
1010
0100
,
1001
0100
1001
0110
1100
0011
0110
1001
,
0110
0101
1110
0000
0000
0000
1100
1100
,
1100
1100
1100
1100
0011
0000
0110
0000
1001
0000
1100
0000
0101
0000
1010
0000
,
0110
0011
1100
0110
1001
1010
0101
1100
,
0011
0110
1001
1010
0101
0110
1001
1100
,
0011
0101
1010
0110
1001
1100
0101
0110
,
0011
1001
1010
0101
0110
1100
0011
0110
,
1001
1100
0101
1010
0110
0011
1001
0101
,
1010
0110
1001
1100
0011
0110
1001
1010
,
0101
0011
0220
0000
0000
0000
0000
0000
,
1331
1001
1001
1001
0000
0000
0000
0000
0000
0000
0000
0000
0000
0000
0000
0000
;
